<?xml version="1.0" standalone="no"?>
<!DOCTYPE svg PUBLIC "-//W3C//DTD SVG 1.1//EN" "http://www.w3.org/Graphics/SVG/1.1/DTD/svg11.dtd" >
<svg xmlns="http://www.w3.org/2000/svg" xmlns:xlink="http://www.w3.org/1999/xlink" version="1.1">
<metadata>
Created by FontForge 20170731 at Fri Dec  4 22:28:53 2020
 By Aleksey,,,
</metadata>
<defs>
<font id="hbicons" horiz-adv-x="2048" >
  <font-face 
    font-family="hbicons"
    font-weight="400"
    font-stretch="normal"
    units-per-em="2048"
    panose-1="2 0 5 3 0 0 0 0 0 0"
    ascent="1920"
    descent="-128"
    bbox="0 -129 2049 1920"
    underline-thickness="0"
    underline-position="0"
    unicode-range="U+0020-E602"
  />
<missing-glyph 
 />
    <glyph glyph-name=".notdef" 
 />
    <glyph glyph-name=".notdef" 
 />
    <glyph glyph-name=".null" horiz-adv-x="0" 
 />
    <glyph glyph-name="nonmarkingreturn" horiz-adv-x="682" 
 />
    <glyph glyph-name="space" unicode=" " horiz-adv-x="1024" 
 />
    <glyph glyph-name="uniE000" unicode="&#xe000;" 
d="M523 1826l86 86l1013 -1014l-2 -2l2 -2l-1013 -1014l-86 86l929 930z" />
    <glyph glyph-name="uniE001" unicode="&#xe001;" 
d="M1537 -34l-86 -86l-1013 1014l2 2l-2 2l1013 1014l86 -86l-929 -930z" />
    <glyph glyph-name="uniE002" unicode="&#xe002;" 
d="M2015 188l-493 493q114 192 114 415q0 220 -109 407t-296 296t-407 109t-407 -109t-296 -296t-109 -407t109 -407t296 -296t407 -109q224 0 414 113l493 -493q17 -17 41.5 -16.5t41.5 17.5l200 200q17 17 17.5 41.5t-16.5 41.5zM211 1096q0 124 48.5 238t130.5 196
t196 130.5t238 48.5q166 0 307.5 -82t224 -223.5t82.5 -307.5t-82.5 -307.5t-224 -224t-307.5 -82.5t-307.5 82.5t-223.5 224t-82 307.5z" />
    <glyph glyph-name="uniE003" unicode="&#xe003;" 
d="M1874 311l-601 602l560 560q11 11 12 25t-9 24l-197 197q-10 10 -23.5 9t-24.5 -12l-561 -561l-563 563q-11 11 -25 12t-24 -9l-196 -197q-10 -10 -9 -23.5t12 -24.5l563 -563l-604 -604q-11 -11 -12 -25t9 -24l196 -197q10 -10 24 -9t25 12l604 604l602 -601
q11 -11 24.5 -12t23.5 9l197 196q10 10 9 24t-12 25z" />
    <glyph glyph-name="uniE004" unicode="&#xe004;" 
d="M2027 1905l22 -21l-2013 -2013l-21 22z" />
    <glyph glyph-name="uniE005" unicode="&#xe005;" 
d="M816 1104h-793v793h793v-793zM72 1153h694v695h-694v-695zM2034 1104h-793v793h793v-793zM1290 1153h695v695h-695v-695zM817 -114h-793v793h793v-793zM73 -65h694v695h-694v-695zM2035 -114h-793v793h793v-793zM1291 -65h695v695h-695v-695z" />
    <glyph glyph-name="uniE006" unicode="&#xe006;" 
d="M533 1839l33 33l976 -976l-976 -976l-33 33l943 943z" />
    <glyph glyph-name="uniE007" unicode="&#xe007;" 
d="M1470 1839l-33 33l-975 -976l975 -976l33 33l-942 943z" />
    <glyph glyph-name="uniE008" unicode="&#xe008;" 
d="M1954 1364l86 -86l-1014 -1014l-2 3l-2 -3l-1014 1014l86 86l930 -930z" />
    <glyph glyph-name="uniE009" unicode="&#xe009;" 
d="M1118 1792h-536q-118 0 -226 -53.5t-174 -145t-66 -194.5q0 -164 114 -276.5t294 -112.5q34 0 50 1q-27 -51 -27 -100q0 -77 73 -148q-15 0 -46 -0.5t-47 -0.5q-145 0 -267.5 -55.5t-191 -144t-68.5 -186.5q0 -94 75.5 -166.5t199.5 -110t274 -37.5q123 0 224.5 33
t166.5 87.5t100 123t35 142.5q0 118 -41 196t-146 152q-47 33 -94 83.5t-47 83.5q0 43 19.5 73t83.5 80q70 54 110.5 126t40.5 154q0 106 -45.5 192t-127.5 117h170zM931 481q7 -31 7 -55q0 -127 -93 -203t-297 -76q-152 0 -253.5 84t-101.5 203q0 114 117.5 197t272.5 81
q73 -2 134 -21q13 -9 45 -31t43 -30t35 -26t33.5 -28.5t23.5 -27t21.5 -33t12.5 -34.5zM602 1064q-103 3 -189 101.5t-104 234.5q-18 135 42 227t164 89t189.5 -99.5t103.5 -231.5q18 -136 -42.5 -230t-163.5 -91zM1664 1408v384h-128v-384h-384v-128h384v-384h128v384h384
v128h-384z" />
    <glyph glyph-name="uniE00A" unicode="&#xe00a;" 
d="M1152 -128h-384v1024h-256v353h256v208q0 91 10.5 159t38.5 127.5t74.5 97t120 58.5t173.5 21h282v-353h-176q-48 0 -77 -8t-42 -29t-16.5 -42.5t-3.5 -61.5v-177h317l-37 -353h-280v-1024z" />
    <glyph glyph-name="uniE00B" unicode="&#xe00b;" 
d="M2048 1531q-117 -51 -241 -66q136 82 184 232q-123 -73 -266 -101q-124 132 -307 132q-174 0 -297 -123t-123 -297q0 -47 11 -96q-258 13 -483 129t-383 310q-57 -98 -57 -211q0 -108 50.5 -200.5t136.5 -149.5q-99 3 -191 53v-5q0 -152 96 -267t241 -145
q-53 -15 -110 -15q-43 0 -79 7q40 -127 147.5 -208t244.5 -83q-229 -180 -522 -180q-50 0 -100 6q295 -189 644 -189q224 0 420 71t336 190t241 273.5t150 323.5t49 337q0 19 -2 55q126 90 210 217z" />
    <glyph glyph-name="uniE00C" unicode="&#xe00c;" 
d="M1970 1308l33 -33l-976 -976l-975 976l33 33l942 -943z" />
    <glyph glyph-name="uniE00D" unicode="&#xe00d;" 
d="M1024 1920q-209 0 -398.5 -81t-326.5 -218t-218 -326.5t-81 -398.5t81 -398.5t218 -326.5t326.5 -218t398.5 -81t398.5 81t326.5 218t218 326.5t81 398.5t-81 398.5t-218 326.5t-326.5 218t-398.5 81zM1123 552q-33 2 -62.5 12.5t-46.5 21t-47.5 31.5t-48.5 32
q-18 -93 -34 -157t-43 -138t-66 -129t-91 -93q-13 70 -10.5 153t9.5 142t23.5 134t31.5 129t33.5 126t29.5 126q-26 43 -31.5 102t9 113t44 99t74 60.5t99.5 -3.5q46 -18 61 -58.5t6 -91t-27 -108t-34.5 -114t-20.5 -104.5t20.5 -82.5t82.5 -46.5q61 -12 116 10t93 70.5
t66 112t38 136.5t7.5 142t-25 131t-60.5 101q-64 65 -149 91.5t-168 16t-162.5 -52t-136 -105t-84.5 -151t-13 -180.5q5 -29 22.5 -61t31 -53t12.5 -58t-27 -82q-227 51 -215 352q4 106 50 201t118 162t163 110t187 54q162 18 304.5 -24.5t240.5 -146t118 -249.5
q14 -85 4 -170.5t-33.5 -164t-68.5 -145t-100.5 -114t-131 -72t-158.5 -17.5z" />
    <glyph glyph-name="uniE00E" unicode="&#xe00e;" 
d="M2048 1204q0 -128 -51 -240.5t-142 -195.5h1l-640 -640q-32 -32 -49.5 -48.5t-45 -38.5t-51 -31.5t-46.5 -9.5t-46.5 9.5t-51 31.5t-45 38.5t-49.5 48.5l-640 640h1q-91 83 -142 195.5t-51 240.5q0 120 46.5 229t125 187.5t187.5 125t229 46.5q128 0 240.5 -51
t195.5 -142q83 91 195.5 142t240.5 51q120 0 229 -46.5t187.5 -125t125 -187.5t46.5 -229z" />
    <glyph glyph-name="uniE00F" unicode="&#xe00f;" 
d="M2048 1204q0 120 -46.5 229t-125 187.5t-187.5 125t-229 46.5q-128 0 -240.5 -51t-195.5 -142q-83 91 -195.5 142t-240.5 51q-120 0 -229 -46.5t-187.5 -125t-125 -187.5t-46.5 -229q0 -128 51 -240.5t142 -195.5h-1l640 -640q32 -32 49.5 -48.5t45 -38.5t51 -31.5
t46.5 -9.5t46.5 9.5t51 31.5t45 38.5t49.5 48.5l640 640h-1q91 83 142 195.5t51 240.5zM1683 958l-648 -649l-11 -11l-11 11l-648 649q-109 100 -109 246q0 137 97.5 234.5t234.5 97.5q146 0 246 -109l190 -209l190 209q100 109 246 109q137 0 234.5 -97.5t97.5 -234.5
q0 -146 -109 -246z" />
    <glyph glyph-name="uniE010" unicode="&#xe010;" 
d="M1160 1032v888h-272v-888h-888v-272h888v-888h272v888h888v272h-888z" />
    <glyph glyph-name="uniE011" unicode="&#xe011;" 
d="M1280 1678l-98 -168l225 -130l97 168zM1118 1397l-486 -841l224 -130l486 842zM1382 1769l149 -87q62 -36 81 -105t-17 -131l-141 -243l-551 -954l-338 -224q-61 -40 -100.5 -17t-34.5 95l25 405l691 1198q36 62 105 80.5t131 -17.5zM549 154l242 160l-224 129z" />
    <glyph glyph-name="uniE012" unicode="&#xe012;" 
d="M1765 1310h-227v91q0 141 -69.5 260t-188.5 188t-260 69q-105 0 -201 -41t-165 -110t-110 -165t-41 -201v-91h-227q-70 0 -120 -61.5t-50 -147.5v-1017q0 -86 50 -147.5t120 -61.5h1489q70 0 120 61.5t50 147.5v1017q0 86 -50 147.5t-120 61.5zM722 1401q0 124 87 211.5
t211 87.5t211.5 -87.5t87.5 -211.5v-91h-597v91zM1716 94h-1392v998h1392v-998z" />
    <glyph glyph-name="uniE013" unicode="&#xe013;" 
d="M833 948q8 1 20.5 3t45 16.5t57 37t45 69.5t20.5 109q0 159 -97.5 243.5t-251.5 84.5h-642v-1234h642q8 0 22 0.5t55 6.5t78 17.5t82 38.5t77.5 64.5t55 99t22.5 138.5v11t-1 27.5t-4 41t-10 48t-17.5 51t-28.5 48t-41 41.5t-56 27.5t-73 10.5zM626 1292h46q4 0 9.5 -1
t20.5 -7.5t26.5 -18.5t21 -38.5t9.5 -62.5q0 -88 -28.5 -117.5t-80.5 -29.5h-337v275h313zM656 497h-343v329h359q5 0 14 -1t31.5 -9.5t39.5 -24.5t31 -51t14 -83q0 -154 -146 -160zM1587 1197q-76 0 -141 -16t-110.5 -43.5t-82.5 -63t-59.5 -75t-39 -79t-24 -75t-12 -63
t-4.5 -43.5l-1 -16q0 -6 -0.5 -16.5t2 -42.5t8.5 -63.5t21 -74t36.5 -78.5t58.5 -73.5t83.5 -63.5t115 -42.5t149.5 -16.5q5 0 14.5 -0.5t38.5 1.5t57 6t66 14t70.5 25t66 40.5t56.5 58t38 80t15 103.5h-217q0 -5 -0.5 -14t-10.5 -32t-28.5 -40.5t-60 -32t-98.5 -14.5
q-1 2 -12 0t-31 2.5t-42.5 10t-46 22t-42.5 38t-31 58.5t-12 84h639q1 11 2.5 30.5t-1 75t-13 106t-40 112t-74 106t-123 75t-180.5 30.5zM1780 826h-405q1 8 4 21t17.5 45.5t36 58t64 46t95.5 20.5q39 0 70.5 -10.5t50.5 -27.5t33 -37t20.5 -40.5t9.5 -37.5t4 -28v-10z
M1322 1439h509v-152h-509v152z" />
    <glyph glyph-name="uniE014" unicode="&#xe014;" 
d="M0 1303l83 -109q7 6 19 14.5t44.5 28.5t60.5 31.5t58.5 12t46.5 -18.5q30 -36 172.5 -501t175.5 -534q20 -42 50.5 -82t74 -75t90.5 -53.5t104.5 -13t112.5 41.5q46 30 107 78.5t144 124.5t166 164t169 200t156.5 227.5t125.5 252t78 269.5q42 239 -84 353
q-100 90 -266 73q-166 -16 -306 -129q-165 -133 -204 -335l-3 -14q68 40 126 46t94 -20t54 -70.5t9 -108t-44 -128.5q-92 -171 -168 -270t-118 -99q-40 0 -75.5 95.5t-90.5 314.5q-11 44 -23 109.5t-20.5 122.5t-22.5 123t-28.5 118.5t-38.5 101.5t-52.5 79t-70.5 44t-93 4
q-74 -15 -164.5 -68.5t-166.5 -119.5t-141.5 -130t-102.5 -107z" />
    <glyph glyph-name="uniE015" unicode="&#xe015;" 
d="M523 1826l86 86l1013 -1014l-2 -2l2 -2l-1013 -1014l-86 86l929 930z" />
    <glyph glyph-name="uniE016" unicode="&#xe016;" 
d="M1537 -34l-86 -86l-1013 1014l2 2l-2 2l1013 1014l86 -86l-929 -930z" />
    <glyph glyph-name="uniE017" unicode="&#xe017;" 
d="M1874 311l-601 602l560 560q11 11 12 25t-9 24l-197 197q-10 10 -23.5 9t-24.5 -12l-561 -561l-563 563q-11 11 -25 12t-24 -9l-196 -197q-10 -10 -9 -23.5t12 -24.5l563 -563l-604 -604q-11 -11 -12 -25t9 -24l196 -197q10 -10 24 -9t25 12l604 604l602 -601
q11 -11 24.5 -12t23.5 9l197 196q10 10 9 24t-12 25z" />
    <glyph glyph-name="uniE018" unicode="&#xe018;" 
d="M816 1104h-793v793h793v-793zM72 1153h694v695h-694v-695zM2034 1104h-793v793h793v-793zM1290 1153h695v695h-695v-695zM817 -114h-793v793h793v-793zM73 -65h694v695h-694v-695zM2035 -114h-793v793h793v-793zM1291 -65h695v695h-695v-695z" />
    <glyph glyph-name="uniE019" unicode="&#xe019;" 
d="M533 1839l33 33l976 -976l-976 -976l-33 33l943 943z" />
    <glyph glyph-name="uniE01A" unicode="&#xe01a;" 
d="M1470 1839l-33 33l-975 -976l975 -976l33 33l-942 943z" />
    <glyph glyph-name="uniE01B" unicode="&#xe01b;" 
d="M1954 1364l86 -86l-1014 -1014l-2 3l-2 -3l-1014 1014l86 86l930 -930z" />
    <glyph glyph-name="uniE01C" unicode="&#xe01c;" 
d="M1970 1308l33 -33l-976 -976l-975 976l33 33l942 -943z" />
    <glyph glyph-name="uniE01D" unicode="&#xe01d;" 
d="M1118 1792h-536q-118 0 -226 -53.5t-174 -145t-66 -194.5q0 -164 114 -276.5t294 -112.5q34 0 50 1q-27 -51 -27 -100q0 -77 73 -148q-15 0 -46 -0.5t-47 -0.5q-145 0 -267.5 -55.5t-191 -144t-68.5 -186.5q0 -94 75.5 -166.5t199.5 -110t274 -37.5q123 0 224.5 33
t166.5 87.5t100 123t35 142.5q0 118 -41 196t-146 152q-47 33 -94 83.5t-47 83.5q0 43 19.5 73t83.5 80q70 54 110.5 126t40.5 154q0 106 -45.5 192t-127.5 117h170zM931 481q7 -31 7 -55q0 -127 -93 -203t-297 -76q-152 0 -253.5 84t-101.5 203q0 114 117.5 197t272.5 81
q73 -2 134 -21q13 -9 45 -31t43 -30t35 -26t33.5 -28.5t23.5 -27t21.5 -33t12.5 -34.5zM602 1064q-103 3 -189 101.5t-104 234.5q-18 135 42 227t164 89t189.5 -99.5t103.5 -231.5q18 -136 -42.5 -230t-163.5 -91zM1664 1408v384h-128v-384h-384v-128h384v-384h128v384h384
v128h-384z" />
    <glyph glyph-name="uniE01E" unicode="&#xe01e;" 
d="M1152 -128h-384v1024h-256v353h256v208q0 91 10.5 159t38.5 127.5t74.5 97t120 58.5t173.5 21h282v-353h-176q-48 0 -77 -8t-42 -29t-16.5 -42.5t-3.5 -61.5v-177h317l-37 -353h-280v-1024z" />
    <glyph glyph-name="uniE01F" unicode="&#xe01f;" 
d="M2048 1531q-117 -51 -241 -66q136 82 184 232q-123 -73 -266 -101q-124 132 -307 132q-174 0 -297 -123t-123 -297q0 -47 11 -96q-258 13 -483 129t-383 310q-57 -98 -57 -211q0 -108 50.5 -200.5t136.5 -149.5q-99 3 -191 53v-5q0 -152 96 -267t241 -145
q-53 -15 -110 -15q-43 0 -79 7q40 -127 147.5 -208t244.5 -83q-229 -180 -522 -180q-50 0 -100 6q295 -189 644 -189q224 0 420 71t336 190t241 273.5t150 323.5t49 337q0 19 -2 55q126 90 210 217z" />
    <glyph glyph-name="uniE020" unicode="&#xe020;" 
d="M1024 1920q-209 0 -398.5 -81t-326.5 -218t-218 -326.5t-81 -398.5t81 -398.5t218 -326.5t326.5 -218t398.5 -81t398.5 81t326.5 218t218 326.5t81 398.5t-81 398.5t-218 326.5t-326.5 218t-398.5 81zM1123 552q-33 2 -62.5 12.5t-46.5 21t-47.5 31.5t-48.5 32
q-18 -93 -34 -157t-43 -138t-66 -129t-91 -93q-13 70 -10.5 153t9.5 142t23.5 134t31.5 129t33.5 126t29.5 126q-26 43 -31.5 102t9 113t44 99t74 60.5t99.5 -3.5q46 -18 61 -58.5t6 -91t-27 -108t-34.5 -114t-20.5 -104.5t20.5 -82.5t82.5 -46.5q61 -12 116 10t93 70.5
t66 112t38 136.5t7.5 142t-25 131t-60.5 101q-64 65 -149 91.5t-168 16t-162.5 -52t-136 -105t-84.5 -151t-13 -180.5q5 -29 22.5 -61t31 -53t12.5 -58t-27 -82q-227 51 -215 352q4 106 50 201t118 162t163 110t187 54q162 18 304.5 -24.5t240.5 -146t118 -249.5
q14 -85 4 -170.5t-33.5 -164t-68.5 -145t-100.5 -114t-131 -72t-158.5 -17.5z" />
    <glyph glyph-name="uniE021" unicode="&#xe021;" 
d="M2048 1204q0 -128 -51 -240.5t-142 -195.5h1l-640 -640q-32 -32 -49.5 -48.5t-45 -38.5t-51 -31.5t-46.5 -9.5t-46.5 9.5t-51 31.5t-45 38.5t-49.5 48.5l-640 640h1q-91 83 -142 195.5t-51 240.5q0 120 46.5 229t125 187.5t187.5 125t229 46.5q128 0 240.5 -51
t195.5 -142q83 91 195.5 142t240.5 51q120 0 229 -46.5t187.5 -125t125 -187.5t46.5 -229z" />
    <glyph glyph-name="uniE022" unicode="&#xe022;" 
d="M2048 1204q0 120 -46.5 229t-125 187.5t-187.5 125t-229 46.5q-128 0 -240.5 -51t-195.5 -142q-83 91 -195.5 142t-240.5 51q-120 0 -229 -46.5t-187.5 -125t-125 -187.5t-46.5 -229q0 -128 51 -240.5t142 -195.5h-1l640 -640q32 -32 49.5 -48.5t45 -38.5t51 -31.5
t46.5 -9.5t46.5 9.5t51 31.5t45 38.5t49.5 48.5l640 640h-1q91 83 142 195.5t51 240.5zM1683 958l-648 -649l-11 -11l-11 11l-648 649q-109 100 -109 246q0 137 97.5 234.5t234.5 97.5q146 0 246 -109l190 -209l190 209q100 109 246 109q137 0 234.5 -97.5t97.5 -234.5
q0 -146 -109 -246z" />
    <glyph glyph-name="uniE023" unicode="&#xe023;" 
d="M1160 1032v888h-272v-888h-888v-272h888v-888h272v888h888v272h-888z" />
    <glyph glyph-name="uniE024" unicode="&#xe024;" 
d="M1280 1678l-98 -168l225 -130l97 168zM1118 1397l-486 -841l224 -130l486 842zM1382 1769l149 -87q62 -36 81 -105t-17 -131l-141 -243l-551 -954l-338 -224q-61 -40 -100.5 -17t-34.5 95l25 405l691 1198q36 62 105 80.5t131 -17.5zM549 154l242 160l-224 129z" />
    <glyph glyph-name="uniE025" unicode="&#xe025;" 
d="M1765 1310h-227v91q0 141 -69.5 260t-188.5 188t-260 69q-105 0 -201 -41t-165 -110t-110 -165t-41 -201v-91h-227q-70 0 -120 -61.5t-50 -147.5v-1017q0 -86 50 -147.5t120 -61.5h1489q70 0 120 61.5t50 147.5v1017q0 86 -50 147.5t-120 61.5zM722 1401q0 124 87 211.5
t211 87.5t211.5 -87.5t87.5 -211.5v-91h-597v91zM1716 94h-1392v998h1392v-998z" />
    <glyph glyph-name="uniE026" unicode="&#xe026;" 
d="M833 948q8 1 20.5 3t45 16.5t57 37t45 69.5t20.5 109q0 159 -97.5 243.5t-251.5 84.5h-642v-1234h642q8 0 22 0.5t55 6.5t78 17.5t82 38.5t77.5 64.5t55 99t22.5 138.5v11t-1 27.5t-4 41t-10 48t-17.5 51t-28.5 48t-41 41.5t-56 27.5t-73 10.5zM626 1292h46q4 0 9.5 -1
t20.5 -7.5t26.5 -18.5t21 -38.5t9.5 -62.5q0 -88 -28.5 -117.5t-80.5 -29.5h-337v275h313zM656 497h-343v329h359q5 0 14 -1t31.5 -9.5t39.5 -24.5t31 -51t14 -83q0 -154 -146 -160zM1587 1197q-76 0 -141 -16t-110.5 -43.5t-82.5 -63t-59.5 -75t-39 -79t-24 -75t-12 -63
t-4.5 -43.5l-1 -16q0 -6 -0.5 -16.5t2 -42.5t8.5 -63.5t21 -74t36.5 -78.5t58.5 -73.5t83.5 -63.5t115 -42.5t149.5 -16.5q5 0 14.5 -0.5t38.5 1.5t57 6t66 14t70.5 25t66 40.5t56.5 58t38 80t15 103.5h-217q0 -5 -0.5 -14t-10.5 -32t-28.5 -40.5t-60 -32t-98.5 -14.5
q-1 2 -12 0t-31 2.5t-42.5 10t-46 22t-42.5 38t-31 58.5t-12 84h639q1 11 2.5 30.5t-1 75t-13 106t-40 112t-74 106t-123 75t-180.5 30.5zM1780 826h-405q1 8 4 21t17.5 45.5t36 58t64 46t95.5 20.5q39 0 70.5 -10.5t50.5 -27.5t33 -37t20.5 -40.5t9.5 -37.5t4 -28v-10z
M1322 1439h509v-152h-509v152z" />
    <glyph glyph-name="uniE027" unicode="&#xe027;" 
d="M0 1303l83 -109q7 6 19 14.5t44.5 28.5t60.5 31.5t58.5 12t46.5 -18.5q30 -36 172.5 -501t175.5 -534q20 -42 50.5 -82t74 -75t90.5 -53.5t104.5 -13t112.5 41.5q46 30 107 78.5t144 124.5t166 164t169 200t156.5 227.5t125.5 252t78 269.5q42 239 -84 353
q-100 90 -266 73q-166 -16 -306 -129q-165 -133 -204 -335l-3 -14q68 40 126 46t94 -20t54 -70.5t9 -108t-44 -128.5q-92 -171 -168 -270t-118 -99q-40 0 -75.5 95.5t-90.5 314.5q-11 44 -23 109.5t-20.5 122.5t-22.5 123t-28.5 118.5t-38.5 101.5t-52.5 79t-70.5 44t-93 4
q-74 -15 -164.5 -68.5t-166.5 -119.5t-141.5 -130t-102.5 -107z" />
    <glyph glyph-name="uniE028" unicode="&#xe028;" 
d="M2015 188l-493 493q114 192 114 415q0 220 -109 407t-296 296t-407 109t-407 -109t-296 -296t-109 -407t109 -407t296 -296t407 -109q224 0 414 113l493 -493q17 -17 41.5 -16.5t41.5 17.5l200 200q17 17 17.5 41.5t-16.5 41.5zM211 1096q0 124 48.5 238t130.5 196
t196 130.5t238 48.5q166 0 307.5 -82t224 -223.5t82.5 -307.5t-82.5 -307.5t-224 -224t-307.5 -82.5t-307.5 82.5t-223.5 224t-82 307.5z" />
    <glyph glyph-name="uniE029" unicode="&#xe029;" 
d="M2027 1905l22 -21l-2013 -2013l-21 22z" />
    <glyph glyph-name="uniE600" unicode="&#xe600;" 
d="M1784 892q-54 0 -102 -20q-16 172 -149 290t-315 118q-88 0 -169 -30q-25 -9 -25 -30v-806q0 -26 28 -30h732q109 0 186.5 74.5t77.5 179.5t-77.5 179.5t-186.5 74.5zM800 384h64l32 448l-32 448h-64l-32 -448zM608 384h-64l-32 326l32 314h64l32 -320zM288 384h64
l32 256l-32 256h-64l-32 -256zM32 512h64l32 128l-32 128h-64l-32 -128z" />
    <glyph glyph-name="uniE601" unicode="&#xe601;" 
d="M1320 191q-25 0 -42 17t-17 42t17 42l543 543h-1746q-25 0 -42.5 17t-17.5 42t17.5 42t42.5 17h1746l-543 544q-17 17 -17 41.5t17 41.5t42 17t42 -17l685 -686l-686 -686q-17 -17 -41 -17z" />
    <glyph glyph-name="uniE602" unicode="&#xe602;" 
d="M569 888h946v-30h-946v30z" />
  </font>
</defs>
</svg>
